Movies - Other

My Friends Tigger and Pooh Super Sleuth Christmas Movie 100 Acre Wood Downhill Challenge (2007) AVI

  • Download 5x Faster
  • Download torrent
  • Direct Download
  • Rate this torrent +  |  -

Torrent info

Name:My Friends Tigger and Pooh Super Sleuth Christmas Movie 100 Acre Wood Downhill Challenge (2007) AVI

Total Size: 479.07 MB

Magnet: Magnet Link

Seeds: 0

Leechers: 0

Stream: Watch Full Movie @ Movie4u

Last Updated: 0000-00-00 00:00:00 (Update Now)

Torrent added: 2013-12-18 15:37:39



CyberGhost VPN For Torrents

Torrent Files List


My Friends Tigger and Pooh Super Sleuth Christmas Movie 100 Acre Wood Downhill Challenge (2007).AVI (Size: 479.07 MB) (Files: 1)

 My Friends Tigger and Pooh Super Sleuth Christmas Movie 100 Acre Wood Downhill Challenge (2007).AVI

479.07 MB
 

Announce URL:

Torrent description

General
Complete name : My Friends Tigger and Pooh Super Sleuth Christmas Movie 100 Acre Wood Downhill Challenge (2007).AVI
Format : AVI
Format/Info : Audio Video Interleave
File size : 479 MiB
Duration : 44mn 16s
Overall bit rate : 1 513 Kbps

Video
ID : 0
Format : MPEG-4 Visual
Format profile : [email protected]
Format settings, BVOP : No
Format settings, QPel : No
Format settings, GMC : No warppoints
Format settings, Matrix : Default (H.263)
Codec ID : XVID
Codec ID/Hint : XviD
Duration : 44mn 15s
Bit rate : 1 378 Kbps
Width : 720 pixels
Height : 480 pixels
Display aspect ratio : 3:2
Frame rate : 23.976 fps
Standard : NTSC
Color space : YUV
Chroma subsampling : 4:2:0
Bit depth : 8 bits
Scan type : Progressive
Compression mode : Lossy
Bits/(Pixel*Frame) : 0.166
Stream size : 436 MiB (91%)
Writing library : ZJMedia MPEG Encoder

Audio
ID : 1
Format : MPEG Audio
Format version : Version 1
Format profile : Layer 3
Mode : Joint stereo
Mode extension : MS Stereo
Codec ID : 55
Codec ID/Hint : MP3
Duration : 44mn 16s
Bit rate mode : Constant
Bit rate : 128 Kbps
Channel(s) : 2 channels
Sampling rate : 44.1 KHz
Compression mode : Lossy
Stream size : 40.5 MiB (8%)
Alignment : Split accross interleaves
Interleave, duration : 1000 ms (23.97 video frames)
Interleave, preload duration : 750 ms


http://lookpic.com/O/i2/703/4CiCWptb.jpeg

related torrents

Torrent name

health leech seeds Size
 


comments (0)

Main Menu